Sri Lanka | New History season 06 episode 09 | PRINCIPAL


Login
Username:
Password:
[Signup]
[Recover Account]


Browse Torrents

Poll


You must be logged in to view polls



Torrent Details For "Mirza Juuliet 2017 Hindi 720p DVDRip x264 DD 5.1"

Mirza Juuliet 2017 Hindi 720p DVDRip x264 DD 5.1

Download this torrent | Magnet Download
Health:
Seeds: 1
Leechers: 1
Completed:
Last Checked: 28-10-2017 09:51:03
External Torrent
Update Stats


Poster


Watch-Free-HD     Download

Details
Name:Mirza Juuliet 2017 Hindi 720p DVDRip x264 DD 5.1
Description:


General
Format                                   : Matroska
Format version                           : Version 4 / Version 2
File size                                : 1.16 GiB
Duration                                 : 1 h 59 min
Overall bit rate                         : 1 385 kb/s

Video
ID                                       : 1
Format                                   : AVC
Format/Info                              : Advanced Video Codec
Format profile                           : [email protected]
Format settings                          : CABAC / 4 Ref Frames
Format settings, CABAC                   : Yes
Format settings, RefFrames               : 4 frames
Codec ID                                 : V_MPEG4/ISO/AVC
Duration                                 : 1 h 59 min
Bit rate                                 : 1 200 kb/s
Width                                    : 1 280 pixels
Height                                   : 544 pixels
Display aspect ratio                     : 2.35:1
Frame rate mode                          : Constant
Frame rate                               : 23.976 (23976/1000) FPS
Color space                              : YUV
Chroma subsampling                       : 4:2:0
Bit depth                                : 8 bits
Scan type                                : Progressive
Bits/(Pixel*Frame)                       : 0.072
Stream size                              : 1 019 MiB (86%)
Writing library                          : x264 core 148 r2643 5c65704
Default                                  : Yes
Forced                                   : No

Audio
ID                                       : 2
Format                                   : AC-3
Format/Info                              : Audio Coding 3
Format settings, Endianness              : Big
Codec ID                                 : A_AC3
Duration                                 : 1 h 59 min
Bit rate mode                            : Constant
Bit rate                                 : 192 kb/s
Channel(s)                               : 6 channels
Channel positions                        : Front: L C R, Side: L R, LFE
Sampling rate                            : 48.0 kHz
Frame rate                               : 31.250 FPS (1536 SPF)
Bit depth                                : 16 bits
Compression mode                         : Lossy
Stream size                              : 164 MiB (14%)
Service kind                             : Complete Main
Default                                  : Yes
Forced                                   : No









Category:Movies > Bollywood
Lang:Hindi
Total Size:1.16 GB
Info Hash:437a694ec4166456f2bbd4f590363279cfb62742
Added By:Freaky
Date Added:28-10-2017 09:51:02
Downloads:227

Ratings:Not Yet Rated (Log in to rate it)


Tracker:
http://ipv4.tracker.harry.lu/announce

This Torrent also has backup trackers
URLSeedersLeechersCompleted
http://ipv4.tracker.harry.lu/announce000
http://ipv4.tracker.harry.lu:80/announce000
http://tracker.devil-torrents.pl:80/announce000
http://tracker.devil-torrents.pl/announce000
http://open.kickasstracker.com/announce000
http://open.kickasstracker.com:443/announce000


File List: 


Comments

No comments still posted

Powered by 10 Hamsters v2-svn -|- Page Generated In 6.645063 secs.
-|- RSS Feed -|- Feed Info
Theme By: Nikkbu